Code:
Format                                          : Matroska
Format version                                  : Version 2
File size                               : 687 MiB
Duration                                        : 2h 42mn
Overall bit rate                                : 593 Kbps
Bit rate                                        : 485 Kbps
Width                                   : 720 pixels
Height                                          : 320 pixels
Display aspect ratio                            : 2.25:1
Frame rate                                      : 24.000 fps
Color space                             : YUV
Chroma subsampling                              : 4:2:0
Bit depth                               : 8 bits
Scan type                               : Progressive
Bits/(Pixel*Frame)                              : 0.088
Stream size                             : 562 MiB (82%)
Title                                   : Mar Mitenge (2011) BRRip 480p Hindi -=AbdullaH=- [TDT]
Default                                 : Yes
Forced                                          : No

Audio
ID                                              : 2
Format                                          : MPEG Audio
Format version                                  : Version 1
Format profile                                  : Layer 2
Muxing mode                             : Header stripping
Codec ID                                        : A_MPEG/L2
Codec ID/Hint                           : MP2
Duration                                        : 2h 42mn
Bit rate mode                           : Constant
Bit rate                                        : 96.0 Kbps
Channel(s)                                      : 2 channels
Sampling rate                           : 48.0 KHz
Compression mode                                : Lossy
Stream size                             : 111 MiB (16%)
Title                                   : -=AbdullaH=- [TDT]
Language                                        : Hindi
 
 

Direct Server Download Link

SERVER 1

SERVER 2

SERVER 3

Size : 687 MB

Single Download / Watch Online Links

Coraldrive Single Download Link

Size : 687 MB

 Fileopic Single Download Link

Size : 687 MB

Uploadcore Single Download Link

Size : 687 MB

Category:

South Indian Movies In Hindi

Tags:

, , , , , , , , , , , , , , , , , , , ,
/* */

Leave a Reply