the-grudge-bluray

The Grudge (2004) Hindi Dubbed BRRip 720P (Dual Audio) Full Movie

25ic0hd1.png

Release Title: The Grudge (2004)
Release Date: 5 November 2004
Size: 1.54 GiB
Duration: 1h 31mn
Genre: Horror | Mystery | Thriller
Language: English + Hindi

Storyline:
Karen Davis is an American Nurse, she moves to Tokyo and encounters
a supernatural spirit who is vengeful and often possesses its victims.
A series of horrifying and mysterious deaths start to occur, with the
spirit passing its curse onto each victim. Karen must now find away to
break this spell, before she becomes its next victim.

9k1gty1.png

Sarah Michelle Gellar … Karen Davis
Jason Behr … Doug
William Mapother … Matthew Williams
Clea DuVall … Jennifer Williams
KaDee Strickland … Susan Williams
Grace Zabriskie … Emma Williams
Bill Pullman … Peter Kirk
Rosa Blasi … Maria Kirk
Ted Raimi … Alex
Ryo Ishibashi … Det. Nakagawa
Yoko Maki … Yoko
Yuya Ozeki … Toshio Saeki
Takako Fuji … Kayako Saeki
Takashi Matsuyama … Takeo Saeki
Hiroshi Matsunaga … Det. Igarashi

zvbzx21.png

Complete name : The Grudge (2004) BRRip 720P (English+Hindi) nsh168810.mkv
Format : Matroska
File size : 1.54 GiB
Duration : 1h 31mn
Overall bit rate : 2 407 Kbps

imdbicon.png

http://imdb.com/title/tt0391198/

# Video
ID : 1
Format : AVC
Format/Info : Advanced Video Codec
Format profile : [email protected]
Format settings, CABAC : Yes
Format settings, ReFrames : 8 frames
Muxing mode : Header stripping
Codec ID : V_MPEG4/ISO/AVC
Duration : 1h 31mn
Bit rate : 1 841 Kbps
Width : 1 280 pixels
Height : 688 pixels
Display aspect ratio : 1.860
Frame rate : 23.976 fps
Color space : YUV
Chroma subsampling : 4:2:0
Bit depth : 8 bits
Scan type : Progressive
Bits/(Pixel*Frame) : 0.087
Stream size : 1.14 GiB (74%)

musicfile1.png

Audio #1
ID : 2
Format : AC-3
Format/Info : Audio Coding 3
Mode extension : CM (complete main)
Muxing mode : Header stripping
Codec ID : A_AC3
Duration : 1h 31mn
Bit rate mode : Constant
Bit rate : 320 Kbps
Channel(s) : 6 channels
Channel positions : Front: L C R, Side: L R, LFE
Sampling rate : 48.0 KHz
Bit depth : 16 bits
Compression mode : Lossy
Stream size : 209 MiB (13%)
Title : 5.1
Language : English

musicfile1.png

Audio #2
ID : 3
Format : AC-3
Format/Info : Audio Coding 3
Mode extension : CM (complete main)
Muxing mode : Header stripping
Codec ID : A_AC3
Duration : 1h 31mn
Bit rate mode : Constant
Bit rate : 256 Kbps
Channel(s) : 2 channels
Channel positions : Front: L R
Sampling rate : 48.0 KHz
Bit depth : 16 bits
Compression mode : Lossy
Delay relative to video : 1s 500ms
Stream size : 167 MiB (11%)
Title : nsh168810
Language : Hindi

screensx.pngThe Grudge (2004) Hindi Dubbed BRRip 720P (Dual Audio) Screenshots:

thegrudge2004brrip720pe.jpg

thegrudge2004brrip720pe.jpg

thegrudge2004brrip720pe.jpg

thegrudge2004brrip720pe.jpgDownload The Grudge (2004) Hindi Dubbed BRRip 720P (Dual Audio) Full Movie

Direct Download Links :- [Total Size: 1.5 GB]
 PART 1 ||  PART 2 || PART 3 ||
 PART 4 ||  PART 5 || PART 6 ||
 PART 7 ||  PART 8 || PART 9 ||
Watch Online / Download Links :-
Movshare
Novamov
Upafile
Unlimitedshare
PutLocker
Uploadcore
UploadHero
Uploaded.to

 

HOW TO DOWNLOAD ???

 

1. Click on the download links

 

2. Wait for few seconds and then click on 

Category:

Dual Audio Movies, Hollywood English Movies, Movies

Tags:

, , , , , , , , , , , , , , , , , , , , , , , , , , , , , , , , , , , , , , , , , , , , , , , , , , , , , , , , , , , , , , , , , , , , , , , , , , , , , , , , , , , , , , , , , , , , , , , , , , , , , , , , , , , , , , , , ,
/* */

Leave a Reply